imdb
rating

7.3
The Fox and the Hound

The Fox and the Hound (1981)

Adventure, Animation, Drama, Family

Full description
quality   dvdr dvdrip x264 bd hd telesync

Red e Toby nemiciamici - The Fox and the Hound (1981 Ita/Eng) + EXTRA [1080p] [iCV-MIRCrew] [Isohunt.to]

Size 5.447 GB   24 seeders     Added 2017-03-05 00:10:38

[center]

[img]http://i.imgur.com/wkDlcoa.png[/img]

[img]http://i.imgur.com/jaQAPLa.png[/img]

[img]http://s24.postimg.org/vrfbkixhx/Cover.png[/img]


[b][color=blue]Red e Toby nemiciamici (1981)[/color][/b]


[img]http://i.imgur.com/bWEfTCo.png[/img]

Titolo originale: The Fox and the Hound
Nazionalità: USA
Anno: 1981
Genere: animazione, avventura, drammatico, commedia
Regia: Art Stevens, Ted Berman, Richard Rich
Durata: 83 min


[img]http://i.imgur.com/3WQCQCo.png[/img]

Una volpe e un cane, da cuccioli, si incontrano nel bosco e diventano amici inseparabili. Il cane, però, viene addestrato dal suo padrone alla caccia e presto si rende conto che l'amica diventa selvaggina. Iniziata la caccia, il cane si trova in difficoltà ma la volpe cacciata non esita a correre in aiuto del vecchio amico.


[img]http://i.imgur.com/CB4Mdtb.png[/img]

[url=http://postimg.org/image/tzfwzy3tj/][img]http://s7.postimg.org/tzfwzy3tj/vlcsnap_error060.png[/img][/url] [url=http://postimg.org/image/6z99nm5zr/][img]http://s7.postimg.org/6z99nm5zr/vlcsnap_error146.png[/img][/url] [url=http://postimg.org/image/rko1finkn/][img]http://s7.postimg.org/rko1finkn/vlcsnap_error376.png[/img][/url] [url=http://postimg.org/image/rlxz8xpef/][img]http://s7.postimg.org/rlxz8xpef/vlcsnap_error784.png[/img][/url]

[url=http://postimg.org/image/spi3kwa1j/][img]http://s7.postimg.org/spi3kwa1j/vlcsnap_error852.png[/img][/url] [url=http://postimg.org/image/gp18xws0n/][img]http://s7.postimg.org/gp18xws0n/vlcsnap_error888.png[/img][/url] [url=http://postimg.org/image/ss6klh32v/][img]http://s7.postimg.org/ss6klh32v/vlcsnap_error904.png[/img][/url] [url=http://postimg.org/image/okbscq1nb/][img]http://s7.postimg.org/okbscq1nb/vlcsnap_error952.png[/img][/url]


[img]http://i.imgur.com/Nfvwker.png[/img]

General
Unique ID                   : 236998821392337511397002666182276150773 (0xB24C500C7A5B5788B615598257EDF5F5)
Complete name               : D:\FILM\Red e Toby nemiciamici (1981) - 1080p EXTRA iCV-MIRCrew\Red e Toby nemiciamici (1981) - 1080p iCV-MIRCrew.mkv
Format                      : Matroska
Format version              : Version 4 / Version 2
File size                   : 4.22 GiB
Duration                    : 1 h 22 min
Overall bit rate            : 7 285 kb/s
Encoded date                : UTC 2017-02-28 23:13:35
Writing application         : mkvmerge v9.8.0 ('Kuglblids') 64bit
Writing library             : libebml v1.3.4 + libmatroska v1.4.5
Cover                       : Yes
Attachments                 : cover.png / small_cover.png

Video
ID                          : 1
Format                      : AVC
Format/Info                 : Advanced Video Codec
Format profile              : [email protected]
Format settings, CABAC      : Yes
Format settings, ReFrames   : 4 frames
Codec ID                    : V_MPEG4/ISO/AVC
Duration                    : 1 h 22 min
Bit rate                    : 6 000 kb/s
Width                       : 1 804 pixels
Height                      : 1 080 pixels
Display aspect ratio        : 5:3
Frame rate mode             : Constant
Frame rate                  : 23.976 (24000/1001) FPS
Color space                 : YUV
Chroma subsampling          : 4:2:0
Bit depth                   : 8 bits
Scan type                   : Progressive
Bits/(Pixel*Frame)          : 0.128
Stream size                 : 3.47 GiB (82%)
Writing library             : x264 core 148 r2708 86b7198
Encoding settings           : cabac=1 / ref=4 / deblock=1:0:0 / analyse=0x3:0x113 / me=umh / subme=8 / psy=1 / psy_rd=1.00:0.00 / mixed_ref=1 / me_range=16 / chroma_me=1 / trellis=1 / 8x8dct=1 / cqm=0 / deadzone=21,11 / fast_pskip=1 / chroma_qp_offset=-2 / threads=12 / lookahead_threads=2 / sliced_threads=0 / nr=0 / decimate=1 / interlaced=0 / bluray_compat=0 / constrained_intra=0 / bframes=3 / b_pyramid=2 / b_adapt=2 / b_bias=0 / direct=3 / weightb=1 / open_gop=0 / weightp=2 / keyint=240 / keyint_min=24 / scenecut=40 / intra_refresh=0 / rc_lookahead=50 / rc=2pass / mbtree=1 / bitrate=6000 / ratetol=1.0 / qcomp=0.60 / qpmin=0 / qpmax=69 / qpstep=4 / cplxblur=20.0 / qblur=0.5 / vbv_maxrate=62500 / vbv_bufsize=78125 / nal_hrd=none / filler=0 / ip_ratio=1.40 / aq=1:1.00
Default                     : Yes
Forced                      : No
Color range                 : Limited
Color primaries             : BT.709
Transfer characteristics    : BT.709
Matrix coefficients         : BT.709

Audio #1
ID                          : 2
Format                      : AC-3
Format/Info                 : Audio Coding 3
Mode extension              : CM (complete main)
Format settings, Endianness : Big
Codec ID                    : A_AC3
Duration                    : 1 h 22 min
Bit rate mode               : Constant
Bit rate                    : 640 kb/s
Channel(s)                  : 6 channels
Channel positions           : Front: L C R, Side: L R, LFE
Sampling rate               : 48.0 kHz
Frame rate                  : 31.250 FPS (1536 spf)
Bit depth                   : 16 bits
Compression mode            : Lossy
Stream size                 : 380 MiB (9%)
Language                    : Italian
Default                     : Yes
Forced                      : No

Audio #2
ID                          : 3
Format                      : AC-3
Format/Info                 : Audio Coding 3
Mode extension              : CM (complete main)
Format settings, Endianness : Big
Codec ID                    : A_AC3
Duration                    : 1 h 22 min
Bit rate mode               : Constant
Bit rate                    : 640 kb/s
Channel(s)                  : 6 channels
Channel positions           : Front: L C R, Side: L R, LFE
Sampling rate               : 48.0 kHz
Frame rate                  : 31.250 FPS (1536 spf)
Bit depth                   : 16 bits
Compression mode            : Lossy
Stream size                 : 380 MiB (9%)
Language                    : English
Default                     : No
Forced                      : No

Text #1
ID                          : 4
Format                      : UTF-8
Codec ID                    : S_TEXT/UTF8
Codec ID/Info               : UTF-8 Plain Text
Duration                    : 1 h 22 min
Bit rate                    : 0 b/s
Count of elements           : 4
Stream size                 : 59.0 Bytes (0%)
Title                       : FORCED
Language                    : Italian
Default                     : Yes
Forced                      : Yes

Text #2
ID                          : 5
Format                      : UTF-8
Codec ID                    : S_TEXT/UTF8
Codec ID/Info               : UTF-8 Plain Text
Duration                    : 1 h 22 min
Bit rate                    : 30 b/s
Count of elements           : 570
Stream size                 : 18.1 KiB (0%)
Language                    : Italian
Default                     : No
Forced                      : No

Text #3
ID                          : 6
Format                      : UTF-8
Codec ID                    : S_TEXT/UTF8
Codec ID/Info               : UTF-8 Plain Text
Duration                    : 1 h 16 min
Bit rate                    : 35 b/s
Count of elements           : 690
Stream size                 : 19.8 KiB (0%)
Language                    : English
Default                     : No
Forced                      : No

Text #4
ID                          : 7
Format                      : UTF-8
Codec ID                    : S_TEXT/UTF8
Codec ID/Info               : UTF-8 Plain Text
Duration                    : 1 h 21 min
Bit rate                    : 28 b/s
Count of elements           : 691
Stream size                 : 16.9 KiB (0%)
Language                    : French
Default                     : No
Forced                      : No

Text #5
ID                          : 8
Format                      : UTF-8
Codec ID                    : S_TEXT/UTF8
Codec ID/Info               : UTF-8 Plain Text
Duration                    : 1 h 22 min
Bit rate                    : 30 b/s
Count of elements           : 649
Stream size                 : 18.6 KiB (0%)
Language                    : German
Default                     : No
Forced                      : No

Text #6
ID                          : 9
Format                      : UTF-8
Codec ID                    : S_TEXT/UTF8
Codec ID/Info               : UTF-8 Plain Text
Duration                    : 1 h 22 min
Bit rate                    : 29 b/s
Count of elements           : 677
Stream size                 : 17.6 KiB (0%)
Language                    : Portuguese
Default                     : No
Forced                      : No

Text #7
ID                          : 10
Format                      : UTF-8
Codec ID                    : S_TEXT/UTF8
Codec ID/Info               : UTF-8 Plain Text
Duration                    : 1 h 22 min
Bit rate                    : 28 b/s
Count of elements           : 686
Stream size                 : 17.5 KiB (0%)
Language                    : Spanish
Default                     : No
Forced                      : No

Menu
00:00:00.000                : en:Chapter 1
00:04:43.783                : en:Chapter 2
00:07:57.643                : en:Chapter 3
00:10:13.487                : en:Chapter 4
00:11:43.536                : en:Chapter 5
00:17:46.523                : en:Chapter 6
00:19:01.265                : en:Chapter 7
00:23:16.269                : en:Chapter 8
00:27:54.673                : en:Chapter 9
00:30:50.306                : en:Chapter 10
00:38:04.115                : en:Chapter 11
00:43:27.813                : en:Chapter 12
00:48:24.401                : en:Chapter 13
00:50:55.260                : en:Chapter 14
00:57:50.467                : en:Chapter 15
01:01:32.772                : en:Chapter 16
01:05:10.865                : en:Chapter 17
01:08:27.728                : en:Chapter 18
01:14:01.937                : en:Chapter 19
01:17:10.917                : en:Chapter 20


[img]http://i.imgur.com/pBGfMGu.png[/img]

In questa versione sono compresi gli extra:

1 - Unlikely Friends
2 - Il Passaggio del Testimone - Come nasce Red e Toby Nemiciamici
3 - Amici per la Pelle - Canta Con Noi
4 - Super Pluto - Cartone Animato
5 - Lambert il leone tenerone
6 - Qua la zampa


[/center]
Red e Toby nemiciamici (1981) - 1080p iCV-MIRCrew.mkv 4.53 GB
EXTRA - iCV-MIRCrew/2 - Il Passaggio del Testimone - Come nasce Red e Toby Nemiciamici.mkv 89.505 MB
EXTRA - iCV-MIRCrew/3 - Amici per la Pelle - Canta Con Noi.mkv 31.82 MB
Gathering some info...

Register and log in Isohunt and see no captcha anymore!

4000 symbols left
Hash 8db7807a3631398fd5754c7f03c2ed14d239ca2b

Related torrents for "Red e Toby nemiciamici - The Fox and the Hound (1981 Ita/Eng) + EXTRA [1080p] [iCV-MIRCrew] [Isohunt.to]"

Torrent search:

italian english 1981 fullhd